Thứ Hai, ngày 07 tháng 3 năm 2011

16 Blocks 2006 m720p-SiNGH





 

http://www.imdb.com/title/tt0450232/
Format                           : Matroska
File size                        : 2.10 GiB
Duration                         : 1h 41mn
Overall bit rate                 : 2 946 Kbps
Movie name                       : 16 Blocks (2006) -UNiT3D
Encoded date                     : UTC 2009-12-16 17:50:48
Writing application              : mkvmerge v2.9.8 ('C'est le bon') built on Aug 13 2009 12:49:06
Writing library                  : libebml v0.7.7 + libmatroska v0.8.1

Video
ID                               : 1
Format                           : AVC
Format/Info                      : Advanced Video Codec
Format profile                   : High@L4.1
Format settings, CABAC           : Yes
Format settings, ReFrames        : 8 frames
Codec ID                         : V_MPEG4/ISO/AVC
Duration                         : 1h 41mn
Bit rate                         : 2 560 Kbps
Width                            : 1 280 pixels
Height                           : 544 pixels
Display aspect ratio             : 2.35:1
Frame rate                       : 23.976 fps
Color space                      : YUV
Chroma subsampling               : 4:2:0
Bit depth                        : 8 bits
Scan type                        : Progressive
Bits/(Pixel*Frame)               : 0.153
Stream size                      : 1.78 GiB (85%)
Writing library                  : x264 core 79 r1360M 528c100
Encoding settings                : cabac=1 / ref=8 / deblock=1:-2:-2 / analyse=0x3:0x133 / me=umh / subme=10 / psy=1 / psy_rd=1.0:0.2 / mixed_ref=1 / me_range=24 / chroma_me=1 / trellis=2 / 8x8dct=1 / cqm=2 / deadzone=21,11 / chroma_qp_offset=-4 / threads=6 / nr=0 / decimate=0 / mbaff=0 / constrained_intra=0 / bframes=4 / b_pyramid=0 / b_adapt=2 / b_bias=0 / direct=3 / wpredb=1 / wpredp=2 / keyint=250 / keyint_min=25 / scenecut=40 / rc_lookahead=50 / rc=2pass / mbtree=1 / bitrate=2560 / ratetol=1.6 / qcomp=0.60 / qpmin=10 / qpmax=51 / qpstep=4 / cplxblur=20.0 / qblur=0.5 / ip_ratio=1.40 / aq=1:1.00
Language                         : English

Audio
ID                               : 2
Format                           : AC-3
Format/Info                      : Audio Coding 3
Mode extension                   : CM (complete main)
Codec ID                         : A_AC3
Duration                         : 1h 41mn
Bit rate mode                    : Constant
Bit rate                         : 384 Kbps
Channel(s)                       : 6 channels
Channel positions                : Front: L C R, Side: L R, LFE
Sampling rate                    : 48.0 KHz
Bit depth                        : 16 bits
Compression mode                 : Lossy
Stream size                      : 280 MiB (13%)
Title                            : AC3 5.1 @ 384 Kbps
Language                         : English
Jack mệt mỏi sau một đêm dài tại sở cảnh sát. nhưng vẫn muốn nhận thêm một công việc tưởng chừng rất đơn giản. giải tên trộm vặt Eddie đến tòa án để làm nhân chứng trước 10 sáng. Khi tiếng súng đầu tiên nhắm vào Eddie. Jack hiểu rằng đây không phải là nhân vật bình thường. Cảnh tượng mà Jack đối diện lại cũng tiếp tục là chuyện oái oăm: nhóm người đang truy lùng Eddie chính là những đồng nghiệp cảnh sát. những gì mà Eddie sắp khai cũng sẽ ảnh hưởng trực tiếp đến anh. Giữa giây phút mong manh của sống và chết. Jack đã chọn cách bảo vệ người có thể góp phần kết tội mình trước tòa. Nhưng 2 con người ngẫu nhiêu trên cùng một chiến tuyến không chỉ có giây phút mong manh đó. Để đến tòa án. họ phải vượt qua tất cả 16 dãy phố. trong tiếng súng và lời chiêu dụ của những đồng nghiệp của Jack. Giữa cái sống và cái chết. giữa nhiệm vụ và thoát tội. giữa áp lực công việc và cuộc sống bình lặng. viên cảnh sát đã chọn cho mình lối hành xử với triết lý sống: "Con người có thể thay đổi được bản tính". Phim là lối nhìn đầy nhân bản về lòng khoan dung và tình yêu con người. Tòa án. nhà tù có thể là nỗi ám ảnh của con người. Nhưng trong 16 ngã rẽ. đó chỉ là cái đích đầy kiêu hãnh mà Jack phải vượt qua bằng tinh thần trách nhiệm và dũng cảm mới đến được. Giữa tiếng súng và những cuộc truy bắt nghẹt thở của đồng nghiệp. có những giây phút bất chợt Jack nhận ra trái tim nhân ái. ước mơ giản dị của Eddie. Ngược lại. chàng trai da màu này cũng nhận ra sau vẻ lạnh lùng của viên cảnh sát là một lối hành xử tình cảm. bao dung. Khoảnh khắc lắng đọng nhất. họ biết rõ về quá khứ. về mặt trái của nhau. cùng nhau nhìn về phía trước để cư xử như những con người quân tử